ShopLyfter.Penelope.Reed.-.Case.No..1257985...The.Rat.Bastards

  • Category XXX
  • Type Video
  • Language English
  • Total size 301.7 MB
  • Uploaded By thetorrentup
  • Downloads 91
  • Last checked 19 hours ago
  • Date uploaded 2 years ago
  • Seeders 0
  • Leechers 0

Infohash : 4921E293FE41A2E9B24BCBE065250446CE194ED2














































































































For fucks sake...!!!

STOP MASTURBATING GODDAMIT...!!!

you little bastard...!!!













* The Rat Bastards Present *









ShopLyfter

FACT: There are approx. 27 Million active shoplifters in our nation today. American retailers lose $45 billion annually to theft. In the business of retail, there are two separate but equally important parties. The teen SHOPLYFTER that tries to steal the merchandise, and the loss prevention officer who stands in their way. Once caught, these officers need to make sure these rebellious juveniles never steal again by ANY MEANS NECESSARY. These are their stories











Penelope Reed - Case No. 1257985

Case No. 1257985


October 19th 10:01am - Case #1257985 - Theft/Collusion - Suspect was caught on camera stealing with male accomplice. LP officer immediately pursued both suspects. Male was spooked and female was apprehended. During questioning, suspect chose to keep quiet and not divulge any details about other assailant. Through heavy bargaining, female suspect was granted immunity and male suspect was issued a warrant after the fact. Evidence logged on Oct 19, 2016.




(of course, as always, this is just another bullshit paysite, where none of this is even remotely true, and its all some dumb ass fantasy role playing, and fake and phony as their acting... )


















General
Complete name : shoplyfter_penelope.reed_case.no.1257985.mp4
Format : MPEG-4
Format profile : Base Media / Version 2
Codec ID : mp42 (isom/iso2/avc1/mp41)
File size : 292 MiB
Duration : 55mn 53s
Overall bit rate mode : Variable
Overall bit rate : 732 Kbps
Movie name : PinkLab - Shoplyfter_Penelope.Reed.Case.No.1257985
Encoded date : UTC 2036-02-06 06:28:16
Tagged date : UTC 2036-02-06 06:28:16
Writing application : HandBrake 0.10.2 2015060900
Comment : PinkLab - Shoplyfter_Penelope.Reed.Case.No.1257985

Video
ID : 1
Format : AVC
Format/Info : Advanced Video Codec
Format profile : [email protected]
Format settings, CABAC : Yes
Format settings, ReFrames : 4 frames
Codec ID : avc1
Codec ID/Info : Advanced Video Coding
Duration : 55mn 53s
Bit rate : 564 Kbps
Width : 854 pixels
Height : 480 pixels
Display aspect ratio : 16:9
Original display aspect ratio : 16:9
Frame rate mode : Constant
Frame rate : 29.970 (30000/1001) fps
Color space : YUV
Chroma subsampling : 4:2:0
Bit depth : 8 bits
Scan type : Progressive
Bits/(Pixel*Frame) : 0.046
Stream size : 226 MiB (77%)
Writing library : x264 core 142 r2479 dd79a61
Encoding settings : cabac=1 / ref=1 / deblock=1:0:0 / analyse=0x1:0x111 / me=hex / subme=2 / psy=1 / psy_rd=1.00:0.00 / mixed_ref=0 / me_range=16 / chroma_me=1 / trellis=0 / 8x8dct=0 / cqm=0 / deadzone=21,11 / fast_pskip=1 / chroma_qp_offset=0 / threads=3 / lookahead_threads=1 / sliced_threads=0 / nr=0 / decimate=1 / interlaced=0 / bluray_compat=0 / constrained_intra=0 / bframes=3 / b_pyramid=2 / b_adapt=1 / b_bias=0 / direct=1 / weightb=1 / open_gop=0 / weightp=1 / keyint=300 / keyint_min=30 / scenecut=40 / intra_refresh=0 / rc_lookahead=10 / rc=crf / mbtree=1 / crf=20.0 / qcomp=0.60 / qpmin=0 / qpmax=69 / qpstep=4 / vbv_maxrate=20000 / vbv_bufsize=25000 / crf_max=0.0 / nal_hrd=none / filler=0 / ip_ratio=1.40 / aq=1:1.00
Encoded date : UTC 2036-02-06 06:28:16
Tagged date : UTC 2036-02-06 06:28:16
Color range : Limited
Color primaries : BT.709
Transfer characteristics : BT.709
Matrix coefficients : BT.709

Audio
ID : 2
Format : AAC
Format/Info : Advanced Audio Codec
Format profile : LC
Codec ID : 40
Duration : 55mn 53s
Bit rate mode : Variable
Bit rate : 160 Kbps
Channel(s) : 2 channels
Channel positions : Front: L R
Sampling rate : 48.0 KHz
Frame rate : 46.875 fps (1024 spf)
Compression mode : Lossy
Stream size : 64.1 MiB (22%)
Title : Stereo / Stereo
Default : Yes
Alternate group : 1
Encoded date : UTC 2036-02-06 06:28:16
Tagged date : UTC 2036-02-06 06:28:16











* * the scene opens witht he chickie in the office having just been nabbed for shoplifting, whereas her male partner manages to elude capture... refusing to give him up, a bargain is made and so she agrees to fuck the security dude in exchange for her release... she starts to undress, then drops to her knees and starts to give the dude a blowjob... she soon finds herself bent over his desk as he takes her from behind standing doggy style... she soon is rolled onto her back where he plugs her missionary style, and even climbs onto the desk with her and does a bout of crushed nuts... finding this to be a bit uncomfortable, they make their way to his chair, where she is bent over it and again taken from a standing doggy style while she rests on the chair... a few hums later and she is back on her knees as he drops a facial on her... she is allowed to get dressed and can leave... the end...


nothing great, and same-old-shit , so if this is to your liking, I hope you enjoy it...





* this of course is all fake and phony, but if that is what you like, then you might enjoy this little ditty, as you watch Penelope getting drilled.... *



I did not rip this from the site originally, and stumbled on it on another site, and so this is NOT my original work, and I want to say thank you to the original uploader, whom I know not, but am still grateful that you took the time to rip it from the site, and share it with the world...



From ALL of us here, to ALL of you out there, sharing is caring, and we thank you...











































Files:

shop
  • shoplyfter_penelope.reed_case.no.1257985_s.jpg (986.9 KB)
  • shoplyfter_penelope.reed_case.no.1257985.mp4 (292.4 MB)
  • img
    • 34.jpg (196.4 KB)
    • 35.jpg (185.7 KB)
    • 36.jpg (172.7 KB)
    • 33.jpg (193.0 KB)
    • 31.jpg (189.3 KB)
    • 3.jpg (265.3 KB)
    • 30.jpg (178.8 KB)
    • 37.jpg (156.8 KB)
    • 32.jpg (200.3 KB)
    • 39.jpg (195.3 KB)
    • 7.jpg (225.6 KB)
    • 8.jpg (220.5 KB)
    • 9.jpg (208.6 KB)
    • 6.jpg (221.0 KB)
    • 5.jpg (280.8 KB)
    • 29.jpg (322.9 KB)
    • 4.jpg (233.5 KB)
    • 40.jpg (204.3 KB)
    • 38.jpg (181.1 KB)
    • 28.jpg (210.9 KB)
    • 15.jpg (215.3 KB)
    • 16.jpg (179.0 KB)
    • 17.jpg (263.8 KB)
    • 18.jpg (274.3 KB)
    • 14.jpg (215.3 KB)
    • 13.jpg (160.2 KB)
    • 10.jpg (224.9 KB)
    • 11.jpg (312.9 KB)
    • 12.jpg (206.2 KB)
    • 19.jpg (202.0 KB)
    • 2.jpg (217.3 KB)
    • 25.jpg (198.9 KB)
    • 26.jpg (178.6 KB)
    • 27.jpg (200.4 KB)
    • 24.jpg (196.2 KB)
    • 23.jpg (210.3 KB)
    • 20.jpg (215.8 KB)
    • 21.jpg (178.4 KB)
    • 22.jpg (197.9 KB)
    • 1.jpg (239.4 KB)

There are currently no comments. Feel free to leave one :)

Code:

  • udp://tracker.coppersurfer.tk:6969/announce
  • udp://tracker.opentrackr.org:1337/announce
  • udp://p4p.arenabg.ch:1337/announce
  • udp://tracker.aletorrenty.pl:2710/announce
  • udp://9.rarbg.me:2710/announce
  • udp://explodie.org:6969/announce
  • udp://thetracker.org:80/announce
  • udp://tracker.sktorrent.net:6969/announce
  • udp://torrent.gresille.org:80/announce
  • udp://zer0day.ch:1337/announce
  • udp://tracker.piratepublic.com:1337/announce
  • udp://tracker.leechers-paradise.org:6969/announce
  • udp://eddie4.nl:6969/announce
SitemapIf Beale Street Could Talk (2018) | Watch Series | Take Two