Building Star Trek - 720p

  • Category Documentaries
  • Type Documentary
  • Language English
  • Total size 2.2 GB
  • Uploaded By ShinkFive
  • Downloads 70
  • Last checked 3 hours ago
  • Date uploaded 9 hours ago
  • Seeders 16
  • Leechers 8

Infohash : 2D292ABF92AB8FFEB2428BB01971A9381C1ECCEA



BUILDING STAR TREK follows the conservation team from the Smithsonian's National Air and Space Museum as they attempt to restore and conserve the original 11-foot, 250-pound model of the U.S.S. Enterprise from the original series. The special also will track the effort to rebuild a model of the original U.S.S. Enterprise bridge by using authentic set pieces and props, which was on display at Seattle's EMP Museum.

The two-hour special also profiles a new generation of engineers and scientists who are making Star Trek's visionary technology real, pushing the boundaries of physics with inventions first conceived on the iconic series: warp drives, medical tricorders, cloaking devices and tractor beams. Proving that one TV show has truly gone where no man has gone before, BUILDING STAR TREK will showcase clips from the original series that highlight each scientific innovation and the new technologies that have inspired generations.



Specifications:
Format : Matroska
Format version : Version 4 / Version 2
File size : 2.16 GiB
Duration : 1 h 32 min
Overall bit rate : 3 367 kb/s
Writing application : mkvmerge v9.4.0 ('Knurl') 64bit
Writing library : libebml v1.3.4 + libmatroska v1.4.5

Video
ID : 1
Format : AVC
Format/Info : Advanced Video Codec
Format profile : [email protected]
Format settings : CABAC / 5 Ref Frames
Format settings, CABAC : Yes
Format settings, RefFrames : 5 frames
Codec ID : V_MPEG4/ISO/AVC
Duration : 1 h 32 min
Bit rate : 2 981 kb/s
Width : 1 276 pixels
Height : 716 pixels
Display aspect ratio : 16:9
Frame rate mode : Constant
Frame rate : 23.976 (24000/1001) FPS
Color space : YUV
Chroma subsampling : 4:2:0
Bit depth : 8 bits
Scan type : Progressive
Bits/(Pixel*Frame) : 0.136
Stream size : 1.92 GiB (89%)
Default : Yes
Forced : No
Color range : Limited
Matrix coefficients : BT.709

Audio
ID : 2
Format : AC-3
Format/Info : Audio Coding 3
Codec ID : A_AC3
Duration : 1 h 32 min
Bit rate mode : Constant
Bit rate : 384 kb/s
Channel(s) : 6 channels
Channel positions : Front: L C R, Side: L R, LFE
Sampling rate : 48.0 kHz
Frame rate : 31.250 FPS (1536 SPF)
Bit depth : 16 bits
Compression mode : Lossy
Stream size : 253 MiB (11%)
Service kind : Complete Main
Default : Yes
Forced : No

Text
ID : 3
Format : UTF-8
Codec ID : S_TEXT/UTF8
Codec ID/Info : UTF-8 Plain Text
Duration : 1 h 31 min
Bit rate : 110 b/s
Count of elements : 1984
Stream size : 74.2 KiB (0%)
Language : English
Default : No
Forced : No


Full episode details

Files:

  • Building.Star.Trek.2016.720p.HDTV.x264-DHD.mkv (2.2 GB)

There are currently no comments. Feel free to leave one :)

Code:

  • udp://tracker.leechers-paradise.org:6969/announce
  • udp://tracker.coppersurfer.tk:6969/announce
  • udp://tracker.opentrackr.org:1337/announce
  • udp://eddie4.nl:6969/announce
  • udp://inferno.demonoid.pw:3391/announce
  • udp://tracker.coppersurfer.tk:6969
  • udp://tracker.opentrackr.org:1337/announce
  • udp://tracker.tiny-vps.com:6969/announce
  • udp://tracker.vanitycore.co:6969/announce
  • udp://tracker.leechers-paradise.org:6969
  • udp://tracker.zer0day.to:1337/announce
  • udp://tracker.leechers-paradise.org:6969/announce
  • udp://coppersurfer.tk:6969/announce
Sitemapminecraft | Watch Series | Vol.1 Ch.4 : What is Family?